Jump to content

Search the Community

Showing results for tags 'no sound;'.



More search options

  • Search By Tags

    Type tags separated by commas.
  • Search By Author

Content Type


Forums

  • Roxio General
    • News and Announcements
    • General Chat
  • Easy Media Creator Products
    • Creator NXT 6
    • Creator NXT 5
    • Creator NXT 4
    • Creator NXT 3
    • Creator NXT 2
    • Legacy Creator Products
  • Gaming / Capture Products
    • Roxio Game Capture HD PRO
    • Roxio Game Capture for consoles
    • Easy VHS to DVD 3 Plus
    • Easy VHS to DVD
    • Easy CD and DVD Burning (in Red Box): Vista & Windows 7 , 8 and Windows 10 Compatible
    • Roxio MediaBook
    • Roxio Video Lab HD
    • BackOnTrack
    • MyDVD Video Lab and MyDVD Premiere
    • RecordNow Music Lab and Music Lab Premiere
    • Copy and Convert and Easy DVD Copy
    • Legacy Products
  • Macintosh Applications
    • Toast 16
    • Toast 15
    • Toast 14
    • Toast 12
    • Toast 11
    • Toast DVD
    • Easy VHS to DVD for Mac
    • Popcorn 4
    • Popcorn 3
    • Legacy Mac Products
  • Roxio PhotoShow
    • Roxio PhotoShow
    • PhotoShow Legacy Products
  • Roxio Game Capture

Calendars

  • Community Calendar

Found 1 result

  1. Hi, I have Creator NXT Pro 5 since few days ago, and I tried to edit a video file with Videowave but I couldn´t play it with sound. Few days ago I had NXT 4 and yes, I could edit it without problems, with sound. Does anyone have any idea what cause could be the source of this issue? (The Windows 10 player and other players can play the sound without problems) Here is the features of the video file that Roxio plays without sound: General Name : 00021_x264.mp4 Format : AVI Format/Info : Audio Video Interleave File size : 424 MiB Duration : 27mn 42s Overall bit rate : 2 140 Kbps Writing application : Lavf56.36.100 Video ID : 0 Format : AVC Format/Info : Advanced Video Codec Format profile : High@L3 Format settings, CABAC : Yes Format settings, ReFrames : 1 frame Format settings, GOP : M=1, N=12 Codec ID : H264 Duration : 27mn 42s Bit rate : 2 002 Kbps Width : 640 pixels Height : 512 pixels Display aspect ratio : 16:9 Frame rate : 25.000 fps Color space : YUV Chroma subsampling : 4:2:0 Bit depth : 8 bits Scan type : Progressive Bits/(Pixel*Frame) : 0.244 Stream size : 397 MiB (94%) Color range : Limited Audio ID : 1 Format : AC-3 Format/Info : Audio Coding 3 Mode extension : CM (complete main) Format settings, Endianness : Big Codec ID : 2000 Duration : 27mn 42s Bit rate mode : Constant Bit rate : 128 Kbps Channel(s) : 2 channels Channel positions : Front: L R Sampling rate : 44.1 KHz Frame rate : 28.711 fps (1536 spf) Bit depth : 16 bits Compression mode : Lossy Stream size : 25.4 MiB (6%) Alignment : Aligned on interleaves Interleave, duration : 35 ms (0.87 video frame) Thank you for your comments
×