Jump to content

vacant

Members
  • Content Count

    6
  • Joined

  • Last visited

Community Reputation

0 Neutral

About vacant

  • Rank
    Newbie
  1. Ok thank you very much I will try Video help and see what I can glean from them.
  2. Is there any way to strip the unwanted files from the source so Toast can burn them with English audio? Is there another app or process I can use. Please steer me in the right direction? Also this MPEG4 file seems to hang when converting. It seems its PAL which I would not know how to tell because it doesnt seem to say it anywhere, but it just hangs even if I choose do not convert to NTSC? Complete name ----------------------------------------------------------------------------------------- Format : MPEG-4 Format profile : Base Media Codec ID : isom File size : 1.55 GiB Duration : 2h 36mn Overall bit rate : 1 423 Kbps Encoded date : UTC 2013-01-08 19:08:12 Tagged date : UTC 2013-01-08 19:08:12 Video ID : 1 Format : AVC Format/Info : Advanced Video Codec Format profile : High@L4.0 Format settings, CABAC : Yes Format settings, ReFrames : 4 frames Format settings, GOP : M=5, N=28 Codec ID : avc1 Codec ID/Info : Advanced Video Coding Duration : 2h 36mn Bit rate mode : Variable Bit rate : 922 Kbps Maximum bit rate : 8 293 Kbps Width : 1 280 pixels Height : 656 pixels Display aspect ratio : 1.951 Frame rate mode : Constant Frame rate : 23.976 fps Color space : YUV Chroma subsampling : 4:2:0 Bit depth : 8 bits Scan type : Progressive Bits/(Pixel*Frame) : 0.046 Stream size : 1.01 GiB (65%) Writing library : x264 core 129 r2230 1cffe9f Encoding settings : cabac=1 / ref=3 / deblock=1:0:0 / analyse=0x3:0x113 / me=hex / subme=7 / psy=1 / psy_rd=1.00:0.00 / mixed_ref=1 / me_range=16 / chroma_me=1 / trellis=1 / 8x8dct=1 / cqm=0 / deadzone=21,11 / fast_pskip=1 / chroma_qp_offset=-2 / threads=12 / lookahead_threads=2 / sliced_threads=0 / nr=0 / decimate=1 / interlaced=0 / bluray_compat=0 / constrained_intra=0 / bframes=4 / b_pyramid=2 / b_adapt=1 / b_bias=0 / direct=1 / weightb=1 / open_gop=0 / weightp=2 / keyint=240 / keyint_min=23 / scenecut=40 / intra_refresh=0 / rc_lookahead=40 / rc=2pass / mbtree=1 / bitrate=922 / ratetol=1.0 / qcomp=0.60 / qpmin=0 / qpmax=69 / qpstep=4 / cplxblur=20.0 / qblur=0.5 / ip_ratio=1.40 / aq=1:1.00 Encoded date : UTC 2013-01-08 18:19:47 Tagged date : UTC 2013-01-08 19:08:35 Audio #1 ID : 2 Format : AAC Format/Info : Advanced Audio Codec Format profile : LC Codec ID : 40 Duration : 2h 36mn Bit rate mode : Variable Bit rate : 384 Kbps Maximum bit rate : 434 Kbps Channel(s) : 5 channels Channel positions : Front: L C R, Side: L R Sampling rate : 48.0 KHz Compression mode : Lossy Stream size : 430 MiB (27%) Language : English Encoded date : UTC 2013-01-08 17:43:44 Tagged date : UTC 2013-01-08 19:08:35 Audio #2 ID : 3 Format : AAC Format/Info : Advanced Audio Codec Format profile : HE-AAC / LC Codec ID : 40 Duration : 2h 36mn Bit rate mode : Variable Bit rate : 111 Kbps Maximum bit rate : 137 Kbps Channel(s) : 5 channels Channel positions : Front: L C R, Side: L R Sampling rate : 48.0 KHz / 24.0 KHz Compression mode : Lossy Stream size : 124 MiB (8%) Language : English Encoded date : UTC 2013-01-08 17:08:52 Tagged date : UTC 2013-01-08 19:08:35
  3. I just want to burn a DVD with either preferably the single English track or The Japanese track with English subtitles, that would suffice. Can this not be done?
  4. Im reaching my wits end, Im a reletive noob to digital authoring, I have tried to convert and burn an AVI to DVD that has an English track, Japanese track and English subtitles and have produced coasters with either just the Japanese and no English track sans Subtitles and dont know why as Im sure I picked the English track as it seems you can only choose one in the interface. here is the rundown from media inspector: General Complete name: Format : Matroska File size : 4.36 GiB Duration : 1h 43mn Overall bit rate : 6 064 Kbps Writing application : x264.exe Writing library : mkv2rls v1.4 (date: 2011 mar 29) Video ID : 1 Format : AVC Format/Info : Advanced Video Codec Format profile : High@L4.1 Format settings, CABAC : Yes Format settings, ReFrames : 9 frames Codec ID : V_MPEG4/ISO/AVC Duration : 1h 43mn Bit rate : 4 360 Kbps Width : 1 280 pixels Height : 688 pixels Display aspect ratio : 1.860 Frame rate : 23.976 fps Color space : YUV Chroma subsampling : 4:2:0 Bit depth : 8 bits Scan type : Progressive Bits/(Pixel*Frame) : 0.206 Stream size : 3.05 GiB (70%) Writing library : x264 core 129 r2230 1cffe9f Encoding settings : cabac=1 / ref=9 / deblock=1:1:1 / analyse=0x3:0x113 / me=umh / subme=8 / psy=1 / psy_rd=0.40:0.00 / mixed_ref=1 / me_range=16 / chroma_me=1 / trellis=1 / 8x8dct=1 / cqm=0 / deadzone=21,11 / fast_pskip=1 / chroma_qp_offset=-2 / threads=12 / lookahead_threads=2 / sliced_threads=0 / nr=0 / decimate=1 / interlaced=0 / bluray_compat=0 / constrained_intra=0 / bframes=5 / b_pyramid=2 / b_adapt=2 / b_bias=0 / direct=3 / weightb=1 / open_gop=0 / weightp=2 / keyint=240 / keyint_min=24 / scenecut=40 / intra_refresh=0 / rc_lookahead=50 / rc=2pass / mbtree=1 / bitrate=4360 / ratetol=1.0 / qcomp=0.60 / qpmin=0 / qpmax=69 / qpstep=4 / cplxblur=20.0 / qblur=0.5 / ip_ratio=1.40 / aq=1:0.60 Language : English Audio #1 ID : 2 Format : DTS Format/Info : Digital Theater Systems Codec ID : A_DTS Duration : 1h 43mn Bit rate mode : Constant Bit rate : 1 510 Kbps Channel(s) : 2 channels Channel positions : Front: L R Sampling rate : 48.0 KHz Bit depth : 24 bits Compression mode : Lossy Stream size : 1.09 GiB (25%) Language : Japanese Audio #2 ID : 3 Format : AC-3 Format/Info : Audio Coding 3 Format profile : Dolby Digital Mode extension : CM (complete main) Codec ID : A_AC3 Duration : 1h 43mn Bit rate mode : Constant Bit rate : 192 Kbps Channel(s) : 2 channels Channel positions : Front: L R Sampling rate : 48.0 KHz Bit depth : 16 bits Compression mode : Lossy Stream size : 142 MiB (3%) Language : English Text ID : 4 Format : UTF-8 Codec ID : S_TEXT/UTF8 Codec ID/Info : UTF-8 Plain Text Language : English Menu 00:00:00.000 : en:00:00:00.000 00:00:13.013 : en:00:00:13.013 00:05:34.501 : en:00:05:34.501 00:07:47.634 : en:00:07:47.634 00:10:33.800 : en:00:10:33.800 00:15:29.303 : en:00:15:29.303 00:20:49.957 : en:00:20:49.957 00:26:06.356 : en:00:26:06.356 00:30:55.437 : en:00:30:55.437 00:36:23.139 : en:00:36:23.139 00:42:02.645 : en:00:42:02.645 00:47:19.754 : en:00:47:19.754 00:52:53.295 : en:00:52:53.295 00:57:45.796 : en:00:57:45.796 01:01:39.154 : en:01:01:39.154 01:07:19.452 : en:01:07:19.452 01:11:42.965 : en:01:11:42.965 01:16:04.393 : en:01:16:04.393 01:20:16.437 : en:01:20:16.437 01:24:39.157 : en:01:24:39.157 01:29:10.720 : en:01:29:10.720 01:34:34.419 : en:01:34:34.419 01:39:47.148 : en:01:39:47.148 01:42:18.132 : en:01:42:18.132 And here is an MPEG4 that results in only Japanese. I have tried other apps to encode them and then burn with Toast to no avail. Im really very confused now as Ive been researching this but have hit a brickwall. General Complete name Format : MPEG-4 Format profile : Base Media Codec ID : isom File size : 1.75 GiB Duration : 1h 33mn Overall bit rate : 2 682 Kbps Movie name : Porco Rosso (1992) 1080p [Jpn & Eng] Blu-ray (Studio Ghibli) Encoded date : UTC 2014-07-24 03:00:30 Tagged date : UTC 2014-07-24 23:41:48 Cover : Yes hdvd : 2 stik : 0 Video ID : 1 Format : AVC Format/Info : Advanced Video Codec Format profile : High@L4.0 Format settings, CABAC : Yes Format settings, ReFrames : 4 frames Format settings, GOP : M=4, N=24 Codec ID : avc1 Codec ID/Info : Advanced Video Coding Duration : 1h 33mn Bit rate mode : Variable Bit rate : 2 350 Kbps Maximum bit rate : 10.4 Mbps Width : 1 920 pixels Height : 1 040 pixels Display aspect ratio : 16:9 Frame rate mode : Constant Frame rate : 23.976 fps Color space : YUV Chroma subsampling : 4:2:0 Bit depth : 8 bits Scan type : Progressive Bits/(Pixel*Frame) : 0.049 Stream size : 1.53 GiB (88%) Writing library : x264 core 130 r2273 b3065e6 Encoding settings : cabac=1 / ref=4 / deblock=1:1:1 / analyse=0x3:0x113 / me=umh / subme=8 / psy=1 / psy_rd=0.40:0.00 / mixed_ref=1 / me_range=16 / chroma_me=1 / trellis=1 / 8x8dct=1 / cqm=0 / deadzone=21,11 / fast_pskip=1 / chroma_qp_offset=-2 / threads=9 / lookahead_threads=1 / sliced_threads=0 / nr=0 / decimate=1 / interlaced=0 / bluray_compat=0 / constrained_intra=0 / bframes=3 / b_pyramid=2 / b_adapt=2 / b_bias=0 / direct=3 / weightb=1 / open_gop=0 / weightp=2 / keyint=250 / keyint_min=23 / scenecut=40 / intra_refresh=0 / rc_lookahead=50 / rc=2pass / mbtree=1 / bitrate=2350 / ratetol=1.0 / qcomp=0.60 / qpmin=0 / qpmax=69 / qpstep=4 / cplxblur=20.0 / qblur=0.5 / vbv_maxrate=24000 / vbv_bufsize=24000 / nal_hrd=none / ip_ratio=1.40 / aq=1:0.60 Language : Japanese Encoded date : UTC 2014-07-24 03:00:30 Tagged date : UTC 2014-07-24 03:01:19 Audio #1 ID : 2 Format : AAC Format/Info : Advanced Audio Codec Format profile : LC Codec ID : 40 Duration : 1h 33mn Bit rate mode : Variable Bit rate : 160 Kbps Maximum bit rate : 166 Kbps Channel(s) : 2 channels Channel positions : Front: L R Sampling rate : 48.0 KHz Compression mode : Lossy Stream size : 107 MiB (6%) Language : Japanese Encoded date : UTC 2014-07-24 03:01:02 Tagged date : UTC 2014-07-24 03:01:19 Audio #2 ID : 3 Format : AAC Format/Info : Advanced Audio Codec Format profile : LC Codec ID : 40 Duration : 1h 33mn Bit rate mode : Variable Bit rate : 160 Kbps Maximum bit rate : 165 Kbps Channel(s) : 2 channels Channel positions : Front: L R Sampling rate : 48.0 KHz Compression mode : Lossy Stream size : 107 MiB (6%) Language : English Encoded date : UTC 2014-07-24 03:01:10 Tagged date : UTC 2014-07-24 03:01:19 Please help.
  5. vacant

    Why Re-Encode Etc?

    Hi thank you. Is there any way to save the encoded file if you are going to burn another copy? Ok this thread answered my question for any other users http://forums.support.roxio.com/topic/19731-encoding-files-and-burning-them-later/
  6. vacant

    Why Re-Encode Etc?

    Hi tried to tack this to another pre-existing thread but it wouldnt allow me to log in fsr. Anyway. I have just finished an encoding and burning session with 2 films went fine, then removed one film ,kept the first, added an uncoded second. The question is why is it now re-encoding the first already encoded film that was succesfully burned to dvd. It should be in the correct format already, never removed it from the interface? Also Im not sure why when I set the DVD menu and then play them with the DVD app on my mac to test them Im not able to see or change chapters. In other words cant switch which movie Im playing only scan to the end of one and the next will play?
×