Jump to content

Shrikant Bhagwat

Members
  • Content Count

    9
  • Joined

  • Last visited

Posts posted by Shrikant Bhagwat


  1. General
    Complete name : D:\Sun Last.mov
    Format : QuickTime
    Format/Info : Original Apple specifications
    File size : 12.3 GiB
    Duration : 14 min 33 s
    Overall bit rate mode : Variable
    Overall bit rate : 121 Mb/s
    Encoded date : UTC 2017-06-11 08:29:10
    Tagged date : UTC 2017-06-11 08:29:10
    Writing library : Apple QuickTime

    Video
    ID : 1
    Format : ProRes
    Format version : Version 0
    Format profile : 422 LT
    Codec ID : apcs
    Duration : 14 min 32 s
    Bit rate mode : Variable
    Bit rate : 102 Mb/s
    Width : 1 920 pixels
    Clean aperture width : 1 888 pixels
    Height : 1 080 pixels
    Clean aperture height : 1 062 pixels
    Display aspect ratio : 16:9
    Clean aperture display aspect ratio : 16:9
    Frame rate mode : Constant
    Frame rate : 29.970 (30000/1001) FPS
    Color space : YUV
    Chroma subsampling : 4:2:2
    Scan type : Interlaced
    Scan type, store method : Interleaved fields
    Scan order : Top Field First
    Bits/(Pixel*Frame) : 1.646
    Stream size : 10.4 GiB (85%)
    Writing library : bmd0
    Language : English
    Encoded date : UTC 2017-06-11 08:29:10
    Tagged date : UTC 2017-06-11 08:29:10
    Color primaries : BT.709
    Transfer characteristics : BT.709
    Matrix coefficients : BT.709
    matrix_coefficients_Original : BT.709

    Audio
    ID : 2
    Format : PCM
    Format settings, Endianness : Little
    Format settings, Sign : Signed
    Codec ID : lpcm
    Duration : 14 min 33 s
    Bit rate mode : Constant
    Bit rate : 18.4 Mb/s
    Channel(s) : 16 channels
    Sampling rate : 48.0 kHz
    Bit depth : 24 bits
    Stream size : 1.87 GiB (15%)
    Language : English
    Encoded date : UTC 2017-06-11 08:29:10
    Tagged date : UTC 2017-06-11 08:29:10

    Other
    ID : 3
    Type : Time code
    Format : QuickTime TC
    Duration : 14 min 32 s
    Time code of first frame : 12:54:09;21
    Time code, striped : Yes
    Language : English
    Encoded date : UTC 2017-06-11 08:29:10
    Tagged date : UTC 2017-06-11 08:29:10


  2. From Digital Guru: That said, what can we do? You can add 'filler' by placing a color panel before and after the transition point. These panels should each be 1/2 the length of the transition. This creates 2 silent portions. By adjusting the time of these panels (trim) you can get it to come out as you intend.

     

    I don't ant to loose audio from any clips (before transition or after transition). How do I place color panel before & after transition point.

×