Jump to content
  • Who's Online   0 Members, 0 Anonymous, 13 Guests (See full list)

    • There are no registered users currently online
  • 0

Captured Avi Won't Play


DaveDischord
 Share

Question

I installed the included software on my laptop and everything works fantastic, capturing and editing, so, I thought I'd also put the software on my desktop since it has more RAM. Everything installed fine and seems to capture smoothly. When I finish the capture (in AVI) I can't play the file in WMP nor can I drop the file to 'Edit & Share' stating that "One or more files cannot be edited..." I can watch captured files using WMV and DIVX and, if I do capture in AVI, I can take that file to my laptop on a flash drive and watch/edit it on there. I'm guessing there might be something with codecs, but that doesn't explain why the Roxio Game Capture Edit & Share won't except it. Any ideas?

post-96445-036620300 1309475005.jpg

Link to comment
Share on other sites

7 answers to this question

Recommended Posts

  • 0

I installed the included software on my laptop and everything works fantastic, capturing and editing, so, I thought I'd also put the software on my desktop since it has more RAM. Everything installed fine and seems to capture smoothly. When I finish the capture (in AVI) I can't play the file in WMP nor can I drop the file to 'Edit & Share' stating that "One or more files cannot be edited..." I can watch captured files using WMV and DIVX and, if I do capture in AVI, I can take that file to my laptop on a flash drive and watch/edit it on there. I'm guessing there might be something with codecs, but that doesn't explain why the Roxio Game Capture Edit & Share won't except it. Any ideas?

 

Hi DaveDischord,

 

Install FFDSHOW and update your DIRECTX and configure like this image below

 

Optional - Media player Classic will play all video files:

 

SOFTWARES

- FFDSHOW ( 23.06.2011) - Windows 32 bits: http://www.free-code...php?d=5552&s=50

 

- FFDSHOW ( 23.06.2011) - Windows 64 bits: http://www.free-code...php?d=5618&s=50

 

- DirectX: http://www.microsoft...aylang=en&id=35

 

- Media Player Classic: http://mpc-hc.sourceforge.net/

 

 

 

sWMrI.jpg

 

Try and reply

 

 

Claudio

Link to comment
Share on other sites

  • 0

Hi DaveDischord,

 

Install FFDSHOW and update your DIRECTX and configure like this image below

 

Optional - Media player Classic will play all video files:

 

SOFTWARES

 

 

 

sWMrI.jpg

 

Try and reply

 

 

Did it all, still no luck. Thanks though. I'll keep them setup like this.

 

Claudio

Link to comment
Share on other sites

  • 0

Wait DaveDischord,

 

Open the AVI file in Media Player Classic, click with button 2 mouse, in open window click em "properties" copy "media infos" and post here.

 

 

Claudio

 

Media Player Classic did play it.

 

General

Complete name : C:\Users\Dave\Videos\6-30-2011_00.avi

Format : AVI

Format/Info : Audio Video Interleave

Format_Commercial_IfAny : DV

File size : 15.2 MiB

Duration : 4s 171ms

Overall bit rate : 30.5 Mbps

 

Video

ID : 0

Format : DV

Codec ID : dvsd

Codec ID/Hint : Sony

Duration : 4s 171ms

Bit rate mode : Constant

Bit rate : 24.4 Mbps

Width : 720 pixels

Height : 480 pixels

Display aspect ratio : 16:9

Frame rate mode : Constant

Frame rate : 29.970 fps

Standard : NTSC

Color space : YUV

Chroma subsampling : 4:1:1

Bit depth : 8 bits

Scan type : Interlaced

Compression mode : Lossy

Bits/(Pixel*Frame) : 2.357

Stream size : 14.3 MiB (94%)

 

Audio

ID : 1

Format : PCM

Format settings, Endianness : Little

Format settings, Sign : Signed

Codec ID : 1

Codec ID/Hint : Microsoft

Duration : 4s 0ms

Bit rate mode : Constant

Bit rate : 1 536 Kbps

Channel(s) : 2 channels

Sampling rate : 48.0 KHz

Bit depth : 16 bits

Stream size : 750 KiB (5%)

Interleave, duration : 834 ms (25.00 video frames)

Edited by DaveDischord
Link to comment
Share on other sites

  • 0

DaveDischord if all avi files working in MPC I suggest installing a codec pack.

 

Personally I use K-lite Codec Pack + Quicktime lite + Real Alternative (find all in www.free-codecs.com )

 

When installing K-lite, choose option 7 and ready.

 

 

Claudio

 

 

Awesome! I've got it to where the capture plays in WMP, however, the Roxio Game Capture Edit&Share still won't recognize the file as editable.

Link to comment
Share on other sites

  • 0

Awesome! I've got it to where the capture plays in WMP, however, the Roxio Game Capture Edit&Share still won't recognize the file as editable.

 

Please, reinstall RGC software. Maybe fixed your problem.

 

If not fixed, I´m go my home in 40 minutes and will work for a solution/fix for it.

 

Can you upload a file (10 seconds is enough) in some archive site for me (multiupload or megauplad or 4shared?

 

 

Claudio

Link to comment
Share on other sites

Join the conversation

You can post now and register later. If you have an account, sign in now to post with your account.

Guest
Answer this question...

×   Pasted as rich text.   Paste as plain text instead

  Only 75 emoji are allowed.

×   Your link has been automatically embedded.   Display as a link instead

×   Your previous content has been restored.   Clear editor

×   You cannot paste images directly. Upload or insert images from URL.

Loading...
 Share

×
×
  • Create New...