Jump to content
  • Who's Online   0 Members, 0 Anonymous, 11 Guests (See full list)

    There are no registered users currently online

  • 0
otown

1080P Video

Question

Hi,

 

I have a new camera that shoots 1080p...59.940 fps. Creator 2011 won't recognize it. I was wondering if someone with 2012 can try out a small clip for me. I would PM the link.

 

thx....

Share this post


Link to post
Share on other sites

12 answers to this question

Recommended Posts

  • 0

Sure! You can use the Messenger here if you don't want to post the link in the forum.

 

Post the Make/Model of the camcorder too...

 

I suspect it is the frame rate and you may need to lower it to under 24 to get it to work <_<

 

Still, I would love to get my hands on a file to test out :lol:

Share this post


Link to post
Share on other sites
  • 0

Please upload that video to Upfordown and post a link for us to download it.

 

Sorry, after the upload I got this:

 

The following files were not uploaded because of the indicated errors:

•00002.MTS, you are not allowed to upload this file type.

Share this post


Link to post
Share on other sites
  • 0

Sorry, after the upload I got this:

 

The following files were not uploaded because of the indicated errors:

•00002.MTS, you are not allowed to upload this file type.

If you register you can...

 

Or just change the extension to mp4 and we will remember to change it back ;)

 

LINK for camera specs.

Edited by Jim_Hardin

Share this post


Link to post
Share on other sites
  • 0

I guess its okay to post the link....here it is:

 

http://vimeo.com/28679058

 

Its a Sony DSCTX100V

 

That file is 1280x720, 30 fp. No problem at least in C2011. I don't see why it would be different in C2012.

Edited by myguggi

Share this post


Link to post
Share on other sites
  • 0

I can open it in 2011 too, but I get this for properties in 2012 and 2011,

 

(C2012)

 

post-24553-061825300 1315363616.jpg

 

 

(C2011)

 

post-24553-057495100 1315363639.jpg

Share this post


Link to post
Share on other sites
  • 0

I can open it in 2011 too, but I get this for properties in 2012 and 2011,

 

 

Thats strange, when I select my file to add in Videowave it says the file can't be edited and wasn't added.

Share this post


Link to post
Share on other sites
  • 0

That file is 1280x720, 30 fp. No problem at least in C2011. I don't see why it would be different in C2012.

 

Here are the specs on the file.....I downloaded it from Vimeo to make sure it was changed...and it wasn't...

 

General

ID : 0 (0x0)

Complete name : C:\Users\..............\00002.MTS

Format : BDAV

Format/Info : Blu-ray Video

File size : 32.3 MiB

Duration : 10s 437ms

Overall bit rate : 26.0 Mbps

Maximum Overall bit rate : 28.0 Mbps

 

Video

ID : 4113 (0x1011)

Menu ID : 1 (0x1)

Format : AVC

Format/Info : Advanced Video Codec

Format profile : High@L4.2

Format settings, CABAC : Yes

Format settings, ReFrames : 2 frames

Format settings, GOP : M=1, N=30

Codec ID : 27

Duration : 10s 510ms

Bit rate mode : Variable

Bit rate : 24.7 Mbps

Maximum bit rate : 26.0 Mbps

Width : 1 920 pixels

Height : 1 080 pixels

Display aspect ratio : 16:9

Frame rate : 59.940 fps

Color space : YUV

Chroma subsampling : 4:2:0

Bit depth : 8 bits

Scan type : Progressive

Bits/(Pixel*Frame) : 0.199

Stream size : 30.9 MiB (96%)

 

Audio

ID : 4352 (0x1100)

Menu ID : 1 (0x1)

Format : AC-3

Format/Info : Audio Coding 3

Mode extension : CM (complete main)

Codec ID : 129

Duration : 10s 528ms

Bit rate mode : Constant

Bit rate : 256 Kbps

Channel(s) : 2 channels

Channel positions : Front: L R

Sampling rate : 48.0 KHz

Bit depth : 16 bits

Compression mode : Lossy

Stream size : 329 KiB (1%)

 

Text

ID : 4608 (0x1200)

Menu ID : 1 (0x1)

Format : PGS

Codec ID : 144

Duration : 9s 945ms

Share this post


Link to post
Share on other sites
  • 0

I am not having any problem with it in VideoWave with 2012 either <_<

 

post-39730-055772300 1315408274.jpg

 

Perhaps it is time for the Prep Steps and a Repair install??? :lol:

 

Nice landscaping by the way... I should send you a picture of my World Class Weeds :lol:

Share this post


Link to post
Share on other sites
  • 0

I am not having any problem with it in VideoWave with 2012 either <_<

 

post-39730-055772300 1315408274.jpg

 

Perhaps it is time for the Prep Steps and a Repair install??? :lol:

 

Nice landscaping by the way... I should send you a picture of my World Class Weeds :lol:

 

Okay thx for checking, my original question was about 2012 and whether it could read this file.....which it seems it can so thats good news...

 

thx.

Share this post


Link to post
Share on other sites

Create an account or sign in to comment

You need to be a member in order to leave a comment

Create an account

Sign up for a new account in our community. It's easy!

Register a new account

Sign in

Already have an account? Sign in here.

Sign In Now

×